HD / Sci-Fi
OBCY (1979-1997) [DC] [KLOEKCJA 4 FILMÓW] [1080p] [MINI.HD] [H264] [AC3-E1973] [NAPISY PL]


Dodał: enter1973
Data dodania:
2018-10-09 11:52:47
Rozmiar: 16.59 GB
Ostat. aktualizacja:
2018-10-10 18:44:00
Seedów: 94
Peerów: 143


Komentarze: 18

...( Info )...

Produkcja: USA, Wielka Brytania
Gatunek: Horror, Sci-Fi
Premiera: 1979, 1986, 1992, 1997
Reżyseria: Ridley Scott, James Cameron, David Fincher, Jean-Pierre Jeunet
Scenariusz: Dan O'Bannon, James Cameron, Larry Ferguson, Walter Hill, Joss Whedon

...( Opis )...

Obcy - 8. pasażer Nostromo Alien (1979)

Kosmos. Odległy wszechświat. Grupa siedmiorga członków załogi przebywa w stanie hibernacji. Ich sen przerywa sygnał S.O.S. nadawany z planety LV-240. Kapitan Dallas (Tom Skeritt), dowódca statku, zarządza zejście na niezbadaną planetę w ramach akcji
ratunkowej.

Obcy, decydujące starcie - Aliens (1986)

Po 57 latach dryfowania w przestrzeni kosmicznej oficer Ellen Ripley (Sigourney Weaver) zostaje odnaleziona. Na stacji dowiaduje się, że "firma" wysłała dużą grupę kolonistów na planetę, z której załoga Nostromo wniosła na pokład obcego. Przerażona próbuje interweniować, jednak bez skutku, gdyż nikt jej nie wierzy.

Obcy 3 - Alien³ (1992)

Fiorina 161, zakażona przez wszy planeta, na której znajduje się więzienie pod zaostrzonym rygorem dla najgorszych złoczyńców. W tę zdominowaną przez mężczyzn komunę wkracza porucznik Ripley (Sigourney Weaver), a wraz z nią nieprzyjazny gość.

Obcy, Przebudzenie - Alien, Resurrection (1997)

Jest to już czwarty film z tej serii. Akcja toczy się na stacji kosmicznej Aurgia w dwieście lat po wydarzeniach przedstawionych w "Obcym 3". Grupa naukowców dokonuje eksperymentu i klonuje Ellen Ripley (Sigourney Weaver) wraz z przerażającym płodem w jej łonie.

...( Obsada )...

1:
★ Sigourney Weaver .... Ripley
★ Tom Skerritt .... Dallas
★ Ian Holm .... Ash
★ John Hurt .... Kane
★ Bolaji Badejo .... Obcy

2:
★ Sigourney Weaver .... Ellen Ripley
★ Michael Biehn .... Kapral Dwayne Hicks
★ Paul Reiser .... Carter J. Burke
★ Lance Henriksen .... Bishop
★ Carrie Henn .... Rebecca "Newt" Jorden

3:
★ Sigourney Weaver .... Ellen Ripley
★ Charles S. Dutton .... Dillon
★ Charles Dance .... Clemens
★ Paul McGann .... Golic
★ Danny Webb .... Morse

4:
★ Sigourney Weaver .... Ellen Ripley
★ Winona Ryder .... Annalee Call
★ Dominique Pinon .... Vriess
★ Ron Perlman .... Johner
★ Gary Dourdan .... Christie

...( Dane Techniczne )...

Format : Matroska
Bit rate : 4 000 kb/s
Width : 1 920 pixels
Height : 816 pixels
Format : AC-3
Bit rate : 512 kb/s
Channel(s) : 6 channels
Channel layout : L R C LFE Ls Rs
Sampling rate : 48.0 kHz

1:ŹRÓDŁO:Alien.1979.Directors.Cut.iNTERNAL.CRF.1080p.BluRay.x264-MOOVEE
2:ŹRÓDŁO:Aliens.1986.Directors.Cut.iNTERNAL.CRF.1080p.BluRay.x264-MOOVEE
3:ŹRÓDŁO:Alien.3.1992.Special.Assembly.Cut.1080p.BluRay.x264-Japhson
4:ŹRÓDŁO:Alien.4.1997.Directors.Cut.iNTERNAL.CRF.1080p.BluRay.x264-MOOVEE

Lista plików Show/Hide [Pokaż/Ukryj]
Trackery
  • udp://tracker.coppersurfer.tk:6969/announce
  • udp://tracker.pirateparty.gr:6969/announce
  • http://tracker.vanitycore.co:6969/announce
  • udp://tracker.opentrackr.org:1337/announce
  • udp://9.rarbg.me:2780/announce

<< Poprzednia      Następna >>
1 - 18

Dodał: junior494 Data: 2018-10-09 13:39:50

Panie Cyknij w BluRay tak do 8gb sztuka

Dodał: DUMDUM444 Data: 2018-10-09 14:54:32

DZIĘKI!!!

Dodał: ASTRALBODY Data: 2018-10-09 15:30:04

o dupę to rozbić!. Podbite audio , jak i video.Te wstawki Enter to obelga i profanacja gatunku - ale to juz wiesz.

Dodał: enter1973 Data: 2018-10-09 16:32:47

Audio
ID                             : 2
Format                         : DTS
Format/Info                    : Digital Theater Systems
Codec ID                       : A_DTS
Duration                       : 2 h 24 min
Bit rate mode                  : Constant
Bit rate                       : 1 509 kb/s
Channel(s)                     : 6 channels
Channel layout                 : C L R Ls Rs LFE
Sampling rate                  : 48.0 kHz
Frame rate                     : 93.750 FPS (512 SPF)
Bit depth                      : 24 bits
Compression mode               : Lossy
Stream size                    : 1.53 GiB (14%)
Language                       : English
Default                        : Yes
Forced                         : Yes
oryginalna ścieżka audio

Dodał: baker Data: 2018-10-09 17:20:18

A masz wszystkie części predatora w hd??

Dodał: bobas2009 Data: 2018-10-09 17:22:58

czy to są może te dłuższe wersje tzw. reżyserskie?

Dodał: grzesiek35 Data: 2018-10-09 17:23:51

Dzięki za wstawkę!!!

Dodał: enter1973 Data: 2018-10-09 17:37:37

bobas2009, TAK

Dodał: ASTRALBODY Data: 2018-10-09 18:04:18

ID                             : 2
Format                         : DTS
Format/Info                    : Digital Theater Systems
Codec ID                       : A_DTS
Duration                       : 2 h 24 min
Bit rate mode                  : Constant
Bit rate                       : 1 509 kb/s
Channel(s)                     : 6 channels
Channel layout                 : C L R Ls Rs LFE
Sampling rate                  : 48.0 kHz
Frame rate                     : 93.750 FPS (512 SPF)
Bit depth                      : 24 bits
Compression mode               : Lossy
Stream size                    : 1.53 GiB (14%)
Language                       : English
Default                        : Yes
Forced                         : Yes
oryginalna ścieżka audio - czego dotyczą te dane? .Bo na pewno nie wstawek które zamieściłeś.Przy takich włściwościach jeden plik musiałby miec 8-10GB.Format : AC-3
Bit rate : 512 kb/s ??? co to bitrate??? gdzie nagrywają tak materiał???

Dodał: tracer10 Data: 2018-10-09 18:52:38

16,5 GB 4 filmy z obcym hahahah.
Trzeba być nieźle narąbanym żeby to ściągać w takiej jakości.
Przecież to klasyki sci-fi, tego wręcz nie wypada oglądać z tej wstawki.

Dodał: enter1973 Data: 2018-10-09 20:03:03

IDIOCI JAK CHWASTY SIEJĄ SIĘ SAME!!!

Dodał: anunaki Data: 2018-10-09 20:29:38

mądremu wystarczą dwa słowa, w twoim wypadku enter to i referatu mało.

Dodał: enter1973 Data: 2018-10-09 20:51:40

NO TAK, MASZ RACJĘ

Dodał: tracer10 Data: 2018-10-10 08:09:10

chwastami to jest 90% twoich wstawek kolo.
Miej szacunek do klasyków, na tyle twój łeb chyba stać co?

Dodał: mariok Data: 2018-10-10 13:24:09

https://drive.google.com/file/d/17f_rreySUaWdl2HhDHNXSjOQ0kIc6Lj2/view
takie małe porównanie ze ścierwem enterka

Dodał: tracer10 Data: 2018-10-10 20:55:21

szkoda, że ten łeb nie kuma, że to nie są czasy divix-ów

Dodał: Midrach Data: 2018-10-11 08:45:28

tracer10 Data: 2018-10-09 19:04:25
[Raport]

to jest wstawka - hahahahah 1 sed i 90 giga prędkość  0,5kbs  może  za rok ściągnie

Dodał: tracer10 Data: 2018-10-11 20:40:47

hahah jaki głupi jesteś, na Torrentlech 1 seed kolo wystarcza zupełnie.
Naucz się jak działają takie trackery.
A najlepiej zraportuj siebie samego

1 - 18
<< Poprzednia      Następna >>

Żaden z plików nie znajduje się na serwerze. Torrenty są własnością użytkowników. Administrator serwisu nie może ponieść konsekwencji za to co użytkownicy wstawiają, lub za to co czynią na stronie. Nie możesz używać tego serwisu do rozpowszechniania lub ściągania materiałów do których nie masz odpowiednich praw lub licencji. Użytkownicy odpowiedzialni są za przestrzeganie tych zasad.
Copyright © 2018 Extorrentyorg.pl