TV / Obyczajowy
Shameless US S07E11 - Happily Ever After [720p.AMZN.WEBRip.x264.AC3] [Lektor PL] [ENG+Napisy PL]


Dodał: Lukarusi
Data dodania:
2017-02-13 19:25:37
Rozmiar: 2.45 GB
Ostat. aktualizacja:
2018-06-07 22:57:01
Seedów: 48
Peerów: 39


Komentarze: 1

Info:

produkcja: USA
gatunek: Dramat, Komedia
twórca: Paul Abbott, John Wells
muzyka: iZLER, Mark Mothersbaugh, Jeff Russo
zdjęcia: Rodney Charters, J. Michael Muro, David Moritz
czas trwania: ok. 57 min.

Opis:

Serial opowiada o rodzinie ze społecznego marginesu. Rodzina Gallagherów to szóstka dzieci i wiecznie pijany ojciec - Frank Gallagher, który robi wszystko, tylko nie zajmuje się domem. Dzieciom nie pomaga także matka, która odeszła od rodziny. Cały ciężar prowadzenia domu i rodziny spada na barki najstarszej córki Fiony. Bohaterka w związku z niedyspozycją rodziców sama zajmuje się wychowywaniem swoich licznych braci i sióstr. To nie jest jednak zadanie łatwe do wykonania.

Obsada:

William H. Macy - Frank Gallagher
Emmy Rossum - Fiona Gallagher
Jeremy Allen White - Phillip Lip Gallagher
Cameron Monaghan - Ian Gallagher
Emma Kenney - Debbie Gallagher
Ethan Cutkosky - Carl Gallagher

Dane techniczne:

Format : Matroska
Format version : Version 4 / Version 2
File size : 2.45 GiB
Duration : 56mn 49s
Overall bit rate : 6 174 Kbps
Encoded date : UTC 2017-02-13 18:08:24

Video
ID : 1
Format : AVC
Format/Info : Advanced Video Codec
Format profile : High@L4.1
Format settings, CABAC : Yes
Format settings, ReFrames : 9 frames
Codec ID : V_MPEG4/ISO/AVC
Duration : 56mn 49s
Bit rate : 5 027 Kbps
Width : 1 280 pixels
Height : 720 pixels
Display aspect ratio : 16:9
Frame rate mode : Constant
Frame rate : 23.976 fps
Color space : YUV
Chroma subsampling : 4:2:0
Bit depth : 8 bits
Scan type : Progressive
Bits/(Pixel*Frame) : 0.227
Stream size : 2.00 GiB (81%)
Writing library : x264 core 144 r2525

Audio 1
ID : 2
Format : AC-3
Format/Info : Audio Coding 3
Mode extension : CM (complete main)
Format settings, Endianness : Big
Codec ID : A_AC3
Duration : 56mn 49s
Bit rate mode : Constant
Bit rate : 384 Kbps
Channel(s) : 2 channels
Channel positions : Front: L R
Sampling rate : 48.0 KHz
Bit depth : 16 bits
Compression mode : Lossy
Stream size : 156 MiB (6%)
Language : Polish
Default : Yes
Forced : No

Audio 2
ID : 3
Format : E-AC-3
Format/Info : Audio Coding 3
Format settings, Endianness : Big
Codec ID : A_EAC3
Duration : 56mn 49s
Bit rate mode : Constant
Bit rate : 640 Kbps
Channel(s) : 6 channels
Channel positions : Front: L C R, Side: L R, LFE
Sampling rate : 48.0 KHz
Compression mode : Lossy
Stream size : 260 MiB (10%)
Language : English
Default : No
Forced : No

Text
ID : 4
Format : UTF-8
Codec ID : S_TEXT/UTF8
Codec ID/Info : UTF-8 Plain Text
Language : Polish
Default : No
Forced : No

Lista plików Show/Hide [Pokaż/Ukryj]
Trackery
  • http://tracker.filetracker.pl:8089/announce
  • http://agusiq-torrents.pl:6969/announce
  • http://mgtracker.org:2710/announce
  • udp://eddie4.nl:6969/announce
  • udp://shadowshq.eddie4.nl:6969/announce
  • udp://tracker.leechers-paradise.org:6969/announce
  • http://tracker.torrentyorg.pl/announce
  • udp://9.rarbg.me:2710/announce
  • udp://9.rarbg.com:2710/announce
  • http://94.228.192.98/announce
  • udp://tracker.openbittorrent.com:80/announce
  • http://tracker.immortaltorrent.pl/announce
  • udp://10.rarbg.com/announce
  • udp://sugoi.pomf.se:80/announce
  • http://tracker.trackerfix.com/announce
  • http://tracker.tfile.me/announce
  • http://tracker.aletorrenty.pl:2710/announce
  • http://retracker.omsk.ru:2710/announce
  • udp://tracker.glotorrents.com:6969/announce
  • udp://torrent.gresille.org:80/announce
  • udp://poloniumsurfer.tk:6969/announce
  • udp://tracker.pomf.se:80/announce

<< Poprzednia      Następna >>
1 - 1

Dodał: emil1948 Data: 2018-04-22 10:09:00

Można prosić seeda.

1 - 1
<< Poprzednia      Następna >>

Żaden z plików nie znajduje się na serwerze. Torrenty są własnością użytkowników. Administrator serwisu nie może ponieść konsekwencji za to co użytkownicy wstawiają, lub za to co czynią na stronie. Nie możesz używać tego serwisu do rozpowszechniania lub ściągania materiałów do których nie masz odpowiednich praw lub licencji. Użytkownicy odpowiedzialni są za przestrzeganie tych zasad.
Copyright © 2018 Extorrentyorg.pl